[REUP] Lethal Weapon 4 1998 (1080p Bluray x265 HEVC 10bit AAC 5.1...

  • Category Movies
  • Type HEVC/x265
  • Language English
  • Total size 3.3 GB
  • Uploaded By UTRplus
  • Downloads 268
  • Last checked 48 minutes ago
  • Date uploaded 4 days ago
  • Seeders 12
  • Leechers 5

Infohash : EF528D7E40E900A29493572D4D3524AF329899C2



Lethal Weapon 4 1998 in 1080p, encoded with x265 in HEVC and AAC 5.1 English, with subtitles!
Encoded using the time consuming 2 pass, 10 bit color at 2714 kbps, from a Blu-ray source, for the highest quality possible.



Media Information

Code:

General
Format : Matroska
Format version : Version 4 / Version 2
File size : 2.90 GiB
Duration : 2 h 7 min
Overall bit rate : 3 263 kb/s
Movie name : Lethal Weapon 4
Encoded date : UTC 2016-12-24 18:46:29
Writing application : mkvmerge v9.6.0 ('Slave To Your Mind') 64bit
Writing library : libebml v1.3.4 + libmatroska v1.4.5

Video
ID : 1
Format : HEVC
Format/Info : High Efficiency Video Coding
Format profile : Main [email protected]@Main
Codec ID : V_MPEGH/ISO/HEVC
Duration : 2 h 7 min
Bit rate : 2 715 kb/s
Width : 1 920 pixels
Height : 800 pixels
Display aspect ratio : 2.40:1
Frame rate mode : Constant
Frame rate : 23.976 (24000/1001) FPS
Color space : YUV
Chroma subsampling : 4:2:0
Bit depth : 10 bits
Bits/(Pixel*Frame) : 0.074
Stream size : 2.42 GiB (83%)
Writing library : x265 2.1+70-78e1e1354a25:[Windows][GCC 6.2.0][64 bit] 10bit
Encoding settings : cpuid=1173503 / frame-threads=3 / numa-pools=8 / wpp / no-pmode / no-pme / no-psnr / no-ssim / log-level=2 / input-csp=1 / input-res=1920x800 / interlace=0 / total-frames=183265 / level-idc=0 / high-tier=1 / uhd-bd=0 / ref=3 / no-allow-non-conformance / no-repeat-headers / annexb / no-aud / no-hrd / info / hash=0 / no-temporal-layers / open-gop / min-keyint=23 / keyint=250 / bframes=4 / b-adapt=2 / b-pyramid / bframe-bias=0 / rc-lookahead=20 / lookahead-slices=5 / scenecut=40 / no-intra-refresh / ctu=64 / min-cu-size=8 / no-rect / no-amp / max-tu-size=32 / tu-inter-depth=1 / tu-intra-depth=1 / limit-tu=0 / rdoq-level=0 / signhide / no-tskip / nr-intra=0 / nr-inter=0 / no-constrained-intra / strong-intra-smoothing / max-merge=2 / limit-refs=3 / no-limit-modes / me=1 / subme=2 / merange=57 / temporal-mvp / weightp / no-weightb / no-analyze-src-pics / deblock=0:0 / sao / no-sao-non-deblock / rd=3 / no-early-skip / rskip / no-fast-intra / no-tskip-fast / no-cu-lossless / no-b-intra / rdpenalty=0 / psy-rd=2.00 / psy-rdoq=0.00 / no-rd-refine / analysis-mode=0 / no-lossless / cbqpoffs=0 / crqpoffs=0 / rc=abr / bitrate=2714 / qcomp=0.60 / qpstep=4 / stats-write=0 / stats-read=2 / stats-file=E:\Lethal / Weapon / cplxblur=20.0 / qblur=0.5 / ipratio=1.40 / pbratio=1.30 / aq-mode=2 / aq-strength=1.00 / cutree / zone-count=0 / no-strict-cbr / qg-size=32 / no-rc-grain / qpmax=69 / qpmin=0 / sar=0 / overscan=0 / videoformat=5 / range=0 / colorprim=2 / transfer=2 / colormatrix=2 / chromaloc=0 / display-window=0 / max-cll=0,0 / min-luma=0 / max-luma=1023 / log2-max-poc-lsb=8 / vui-timing-info / vui-hrd-info / slices=1 / opt-qp-pps / opt-ref-list-length-pps / no-multi-pass-opt-rps / scenecut-bias=0.05
Default : Yes
Forced : No

Audio #1
ID : 2
Format : AAC
Format/Info : Advanced Audio Codec
Format profile : LC
Codec ID : A_AAC
Duration : 2 h 7 min
Bit rate : 353 kb/s
Channel(s) : 6 channels
Channel positions : Front: L C R, Side: L R, LFE
Sampling rate : 48.0 kHz
Frame rate : 46.875 FPS (1024 spf)
Compression mode : Lossy
Delay relative to video : 20 ms
Stream size : 320 MiB (11%)
Language : English
Default : Yes
Forced : No

Audio #2
ID : 3
Format : AAC
Format/Info : Advanced Audio Codec
Format profile : HE-AAC / LC
Codec ID : A_AAC
Duration : 2 h 7 min
Bit rate : 66.2 kb/s
Channel(s) : 2 channels
Channel positions : Front: L R
Sampling rate : 48.0 kHz / 24.0 kHz
Frame rate : 23.438 FPS (1024 spf)
Compression mode : Lossy
Delay relative to video : 40 ms
Stream size : 60.0 MiB (2%)
Title : Commentary
Language : English
Default : No
Forced : No

Text #1
ID : 4
Format : VobSub
Muxing mode : zlib
Codec ID : S_VOBSUB
Codec ID/Info : Picture based subtitle format used on DVDs
Duration : 2 h 6 min
Bit rate : 7 003 b/s
Count of elements : 1857
Stream size : 6.36 MiB (0%)
Language : English
Default : No
Forced : No

Text #2
ID : 5
Format : VobSub
Muxing mode : zlib
Codec ID : S_VOBSUB
Codec ID/Info : Picture based subtitle format used on DVDs
Duration : 2 h 6 min
Bit rate : 4 926 b/s
Count of elements : 1632
Stream size : 4.47 MiB (0%)
Language : French
Default : No
Forced : No

Text #3
ID : 6
Format : VobSub
Muxing mode : zlib
Codec ID : S_VOBSUB
Codec ID/Info : Picture based subtitle format used on DVDs
Duration : 2 h 6 min
Bit rate : 6 461 b/s
Count of elements : 1879
Stream size : 5.87 MiB (0%)
Language : German
Default : No
Forced : No

Text #4
ID : 7
Format : VobSub
Muxing mode : zlib
Codec ID : S_VOBSUB
Codec ID/Info : Picture based subtitle format used on DVDs
Duration : 2 h 6 min
Bit rate : 6 634 b/s
Count of elements : 1849
Stream size : 6.02 MiB (0%)
Language : Italian
Default : No
Forced : No

Text #5
ID : 8
Format : VobSub
Muxing mode : zlib
Codec ID : S_VOBSUB
Codec ID/Info : Picture based subtitle format used on DVDs
Duration : 2 h 6 min
Bit rate : 6 150 b/s
Count of elements : 1754
Stream size : 5.59 MiB (0%)
Language : Spanish
Default : No
Forced : No

Text #6
ID : 9
Format : VobSub
Muxing mode : zlib
Codec ID : S_VOBSUB
Codec ID/Info : Picture based subtitle format used on DVDs
Duration : 2 h 6 min
Bit rate : 3 997 b/s
Count of elements : 1158
Stream size : 3.63 MiB (0%)
Language : Bulgarian
Default : No
Forced : No

Text #7
ID : 10
Format : VobSub
Muxing mode : zlib
Codec ID : S_VOBSUB
Codec ID/Info : Picture based subtitle format used on DVDs
Duration : 2 h 6 min
Bit rate : 5 980 b/s
Count of elements : 1913
Stream size : 5.43 MiB (0%)
Language : Chinese
Default : No
Forced : No

Text #8
ID : 11
Format : VobSub
Muxing mode : zlib
Codec ID : S_VOBSUB
Codec ID/Info : Picture based subtitle format used on DVDs
Duration : 2 h 6 min
Bit rate : 12.2 kb/s
Count of elements : 2483
Stream size : 11.0 MiB (0%)
Title : Commentary
Language : Chinese
Default : No
Forced : No

Text #9
ID : 12
Format : VobSub
Muxing mode : zlib
Codec ID : S_VOBSUB
Codec ID/Info : Picture based subtitle format used on DVDs
Duration : 2 h 6 min
Bit rate : 4 876 b/s
Count of elements : 1520
Stream size : 4.43 MiB (0%)
Language : Czech
Default : No
Forced : No

Text #10
ID : 13
Format : VobSub
Muxing mode : zlib
Codec ID : S_VOBSUB
Codec ID/Info : Picture based subtitle format used on DVDs
Duration : 2 h 6 min
Bit rate : 5 353 b/s
Count of elements : 1561
Stream size : 4.86 MiB (0%)
Language : Danish
Default : No
Forced : No

Text #11
ID : 14
Format : VobSub
Muxing mode : zlib
Codec ID : S_VOBSUB
Codec ID/Info : Picture based subtitle format used on DVDs
Duration : 2 h 6 min
Bit rate : 5 148 b/s
Count of elements : 1668
Stream size : 4.67 MiB (0%)
Language : Dutch
Default : No
Forced : No

Text #12
ID : 15
Format : VobSub
Muxing mode : zlib
Codec ID : S_VOBSUB
Codec ID/Info : Picture based subtitle format used on DVDs
Duration : 2 h 6 min
Bit rate : 4 580 b/s
Count of elements : 1349
Stream size : 4.16 MiB (0%)
Language : Finnish
Default : No
Forced : No

Text #13
ID : 16
Format : VobSub
Muxing mode : zlib
Codec ID : S_VOBSUB
Codec ID/Info : Picture based subtitle format used on DVDs
Duration : 2 h 6 min
Bit rate : 5 517 b/s
Count of elements : 1545
Stream size : 5.01 MiB (0%)
Language : Greek
Default : No
Forced : No

Text #14
ID : 17
Format : VobSub
Muxing mode : zlib
Codec ID : S_VOBSUB
Codec ID/Info : Picture based subtitle format used on DVDs
Duration : 2 h 6 min
Bit rate : 5 383 b/s
Count of elements : 1555
Stream size : 4.89 MiB (0%)
Language : Hebrew
Default : No
Forced : No

Text #15
ID : 18
Format : VobSub
Muxing mode : zlib
Codec ID : S_VOBSUB
Codec ID/Info : Picture based subtitle format used on DVDs
Duration : 2 h 6 min
Bit rate : 5 259 b/s
Count of elements : 1737
Stream size : 4.78 MiB (0%)
Language : Korean
Default : No
Forced : No

Text #16
ID : 19
Format : VobSub
Muxing mode : zlib
Codec ID : S_VOBSUB
Codec ID/Info : Picture based subtitle format used on DVDs
Duration : 2 h 6 min
Bit rate : 4 533 b/s
Count of elements : 1659
Stream size : 4.12 MiB (0%)
Language : Norwegian Bokmal
Default : No
Forced : No

Text #17
ID : 20
Format : VobSub
Muxing mode : zlib
Codec ID : S_VOBSUB
Codec ID/Info : Picture based subtitle format used on DVDs
Duration : 2 h 6 min
Bit rate : 4 568 b/s
Count of elements : 1503
Stream size : 4.15 MiB (0%)
Language : Polish
Default : No
Forced : No

Text #18
ID : 21
Format : VobSub
Muxing mode : zlib
Codec ID : S_VOBSUB
Codec ID/Info : Picture based subtitle format used on DVDs
Duration : 2 h 6 min
Bit rate : 5 634 b/s
Count of elements : 1649
Stream size : 5.12 MiB (0%)
Language : Portuguese
Default : No
Forced : No

Text #19
ID : 22
Format : VobSub
Muxing mode : zlib
Codec ID : S_VOBSUB
Codec ID/Info : Picture based subtitle format used on DVDs
Duration : 2 h 6 min
Bit rate : 5 847 b/s
Count of elements : 1767
Stream size : 5.31 MiB (0%)
Language : Russian
Default : No
Forced : No

Text #20
ID : 23
Format : VobSub
Muxing mode : zlib
Codec ID : S_VOBSUB
Codec ID/Info : Picture based subtitle format used on DVDs
Duration : 2 h 6 min
Bit rate : 4 960 b/s
Count of elements : 1341
Stream size : 4.50 MiB (0%)
Language : Swedish
Default : No
Forced : No

Text #21
ID : 24
Format : VobSub
Muxing mode : zlib
Codec ID : S_VOBSUB
Codec ID/Info : Picture based subtitle format used on DVDs
Duration : 2 h 6 min
Bit rate : 5 930 b/s
Count of elements : 1733
Stream size : 5.39 MiB (0%)
Language : Thai
Default : No
Forced : No

Text #22
ID : 25
Format : VobSub
Muxing mode : zlib
Codec ID : S_VOBSUB
Codec ID/Info : Picture based subtitle format used on DVDs
Duration : 2 h 6 min
Bit rate : 5 733 b/s
Count of elements : 1735
Stream size : 5.21 MiB (0%)
Language : Turkish
Default : No
Forced : No

Menu
00:00:00.000 : en:Chapter 01
00:01:52.153 : en:Chapter 02
00:03:51.564 : en:Chapter 03
00:05:54.562 : en:Chapter 04
00:09:47.545 : en:Chapter 05
00:13:40.069 : en:Chapter 06
00:15:31.889 : en:Chapter 07
00:17:28.922 : en:Chapter 08
00:20:32.439 : en:Chapter 09
00:21:54.980 : en:Chapter 10
00:25:28.068 : en:Chapter 11
00:27:50.251 : en:Chapter 12
00:32:20.438 : en:Chapter 13
00:35:42.473 : en:Chapter 14
00:38:17.920 : en:Chapter 15
00:40:15.371 : en:Chapter 16
00:43:04.081 : en:Chapter 17
00:46:27.826 : en:Chapter 18
00:49:28.465 : en:Chapter 19
00:51:19.618 : en:Chapter 20
00:52:14.756 : en:Chapter 21
00:55:53.767 : en:Chapter 22
00:58:45.355 : en:Chapter 23
01:02:42.425 : en:Chapter 24
01:06:32.738 : en:Chapter 25
01:09:36.422 : en:Chapter 26
01:11:34.164 : en:Chapter 27
01:13:44.461 : en:Chapter 28
01:15:37.407 : en:Chapter 29
01:17:27.976 : en:Chapter 30
01:20:01.421 : en:Chapter 31
01:22:38.411 : en:Chapter 32
01:27:29.160 : en:Chapter 33
01:31:05.751 : en:Chapter 34
01:33:02.994 : en:Chapter 35
01:35:36.939 : en:Chapter 36
01:38:03.919 : en:Chapter 37
01:40:33.569 : en:Chapter 38
01:43:51.266 : en:Chapter 39
01:46:22.626 : en:Chapter 40
01:47:29.860 : en:Chapter 41
01:50:10.395 : en:Chapter 42
01:53:53.326 : en:Chapter 43
01:58:02.950 : en:Chapter 44
02:00:15.166 : en:Chapter 45


Source Information

Code:

Complete name : Lethal_Weapon_4_t05.mkv
File size : 28.8 GiB
Duration : 2 h 7 min
Overall bit rate : 32.4 Mb/s


Files:

Lethal Weapon 4 1998 (1080p Bluray x265 HEVC 10bit AAC 5.1 Tigole) Featurettes
  • Maximum Impact - The Legacy of Lethal Weapon.mkv (275.2 MB)
  • Pure Lethal! New Angles, New Scenes and Explosive Outtakes.mkv (145.2 MB)
  • Trailer.mkv (9.0 MB)
  • Lethal Weapon 4 1998 (1080p x265 10bit Tigole).mkv (2.9 GB)

Comments

Code:

  • udp://tracker.torrent.eu.org:451/announce
  • udp://tracker.opentrackr.org:1337/announce
  • udp://tracker.coppersurfer.tk:6969/announce