Thor.Ragnarok.2017.HDTS.720p.HINDI audio.x264 - ORGO

  • Category Movies
  • Type Dubs/Dual Audio
  • Language Hindi
  • Total size 980.0 MB
  • Uploaded By OrGo
  • Downloads 45419
  • Last checked 29 minutes ago
  • Date uploaded 1 month ago
  • Seeders 403
  • Leechers 87

Thor: Ragnarok

ActionAdventureFantasyScience Fiction

Thor is imprisoned on the other side of the universe and finds himself in a race against time to get back to Asgard to stop Ragnarok, the destruction of his homeworld and the end of Asgardian civilization, at the hands of an all-powerful new threat, the ruthless Hela.

Infohash : 7B38C42F62EEA9A078C9F1F0B43CB961493FB557



Info

General
Unique ID : 174212609548291564314408696938688618005 (0x831020CDE829410DBBB3DBE5F77B1E15)
Complete name : Thor Ragnarok 2017 720p HDTS Hindi[New Clean Audio] x264 AAC - ExtraMovies.mkv
Format : Matroska
Format version : Version 4 / Version 2
File size : 980 MiB
Duration : 2 h 1 min
Overall bit rate : 1 129 kb/s
Movie name : ExtraMovies.cc - Thor Ragnarok 2017 720p HDTS Hindi Dubbed x264 AAC
Encoded date : UTC 2017-11-05 09:03:18
Writing application : mkvmerge v17.0.0 ('Be Ur Friend') 64-bit
Writing library : libebml v1.3.5 + libmatroska v1.4.8

Video
ID : 1
Format : AVC
Format/Info : Advanced Video Codec
Format profile : [email protected]
Format settings : CABAC / 8 Ref Frames
Format settings, CABAC : Yes
Format settings, RefFrames : 8 frames
Codec ID : V_MPEG4/ISO/AVC
Duration : 2 h 1 min
Bit rate : 999 kb/s
Width : 1 280 pixels
Height : 544 pixels
Display aspect ratio : 2.35:1
Frame rate mode : Constant
Frame rate : 23.976 (23976/1000) FPS
Color space : YUV
Chroma subsampling : 4:2:0
Bit depth : 8 bits
Scan type : Progressive
Bits/(Pixel*Frame) : 0.060
Stream size : 867 MiB (88%)
Title : ExtraMovies.cc
Writing library : x264 core 142 r2479 dd79a61
Encoding settings : cabac=1 / ref=8 / deblock=1:0:0 / analyse=0x3:0x113 / me=umh / subme=9 / psy=1 / psy_rd=1.00:0.00 / mixed_ref=1 / me_range=16 / chroma_me=1 / trellis=2 / 8x8dct=1 / cqm=0 / deadzone=21,11 / fast_pskip=1 / chroma_qp_offset=-2 / threads=12 / lookahead_threads=1 / sliced_threads=0 / nr=0 / decimate=1 / interlaced=0 / bluray_compat=0 / constrained_intra=0 / bframes=3 / b_pyramid=2 / b_adapt=2 / b_bias=0 / direct=3 / weightb=1 / open_gop=0 / weightp=2 / keyint=240 / keyint_min=24 / scenecut=40 / intra_refresh=0 / rc_lookahead=40 / rc=2pass / mbtree=1 / bitrate=999 / ratetol=1.0 / qcomp=0.60 / qpmin=0 / qpmax=69 / qpstep=4 / cplxblur=20.0 / qblur=0.5 / vbv_maxrate=62500 / vbv_bufsize=78125 / nal_hrd=none / filler=0 / ip_ratio=1.40 / aq=1:1.00
Default : Yes
Forced : No
Color range : Limited
Color primaries : BT.709
Transfer characteristics : BT.709
Matrix coefficients : BT.709

Audio
ID : 2
Format : AAC
Format/Info : Advanced Audio Codec
Format profile : LC
Codec ID : A_AAC-2
Duration : 2 h 1 min
Bit rate : 128 kb/s
Channel(s) : 2 channels
Channel positions : Front: L R
Sampling rate : 48.0 kHz
Frame rate : 46.875 FPS (1024 SPF)
Compression mode : Lossy
Delay relative to video : -146 ms
Stream size : 111 MiB (11%)
Title : ExtraMovies.cc
Language : Hindi
Default : Yes
Forced : No



view screen

http://imgstudio.org/img-5a02b3355ec36.html

http://imgstudio.org/img-5a02b3356b567.html

http://imgstudio.org/img-5a02b33573158.html

http://imgstudio.org/img-5a02b3357ac38.html

Files:

Thor Ragnarok 2017 720p HDTS Hindi[New Clean Audio] x264 AAC - ExtraMovies
  • ExtraMovies.cc.txt (0.0 KB)
  • Thor Ragnarok 2017 720p HDTS Hindi[New Clean Audio] x264 AAC - ExtraMovies.mkv (980.0 MB)

Comments

Code:

  • udp://tracker.coppersurfer.tk:6969/announce
  • udp://tracker.coppersurfer.tk:80/announce
  • udp://tracker.coppersurfer.tk:6969
  • udp://tracker.ilibr.org:6969/announce
  • udp://tracker.ilibr.org:80/announce
  • udp://tracker.opentrackr.org:1337/announce
  • udp://zer0day.to:1337/announce
  • udp://tracker.zer0day.to:1337/announce
  • udp://p4p.arenabg.com:1337/announce
  • udp://p4p.arenabg.ch:1337/announce
  • udp://tracker.leechers-paradise.org:6969/announce
  • udp://explodie.org:6969/announce
  • udp://9.rarbg.to:2710/announce
  • udp://eddie4.nl:6969/announce
  • udp://tracker.zer0day.to:1337/announce
  • udp://tracker.leechers-paradise.org:6969/announce
  • udp://coppersurfer.tk:6969/announce